Toon-Anime Organization
Please Log in or Register to access full features of this Message Board.

[MULTI] Tron Uprising S01 720p/1080p WEB-DL-NTb

View previous topic View next topic Go down

[MULTI] Tron Uprising S01 720p/1080p WEB-DL-NTb

Post  Harry-Potter on Sun Oct 28, 2012 12:10 am



Beck is a young program who becomes the skillful leader of a revolution inside the computer world of The Grid. His mission is to free his home and friends from the reign of the villainous Clu 2 and his henchman General Tesler. Beck will be trained by Tron - the greatest warrior the Grid has ever come to know. Tron will not only teach Beck the fighting and light cycle skills he needs to challenge this brutal military occupation, but he will be a guide and mentor to him as he grows beyond his youthful, impulsive nature into a courageous, powerful, strong leader. Destined to become the next Tron of the system, Beck adopts Tron's persona and becomes the archenemy of General Tesler and his oppressive forces.

Code:
http://www.thetvdb.com/?tab=series&id=258480&lid=7

[size=200]720p[/size]







EPISODES 1 - 7


Code:
http://filecloud.io/sqvb2k8
http://filecloud.io/n5i3fdc
http://filecloud.io/y0mz763
http://filecloud.io/u26zeai
http://filecloud.io/rh81k5f
http://filecloud.io/67wporg
http://filecloud.io/eqh3dnl
http://filecloud.io/s10n5y8b


Code:
http://www.netload.in/dateiRysA57XvVD/Tron.Uprising.S01E01.Becks.Beginning.720p.WEB-DL.DD5.1.H264-NTb.mkv.htm
http://www.netload.in/dateigJBMkGlIvK/Tron.Uprising.S01E02.The.Renegade.Part.I.720p.WEB-DL.DD5.1.H264-NTb.mkv.htm
http://www.netload.in/dateiO64iyRonxA/Tron.Uprising.S01E03.The.Renegade.Part.II.720p.WEB-DL.DD5.1.H264-NTb.mkv.htm
http://www.netload.in/dateiTCeCdeReQk/Tron.Uprising.S01E04.Blackout.720p.WEB-DL.DD5.1.H264-NTb.mkv.htm
http://www.netload.in/dateiyf9hZe78ce/Tron.Uprising.S01E05.Identity.720p.WEB-DL.DD5.1.H264-NTb.mkv.htm
http://www.netload.in/dateiklVdzYXCCz/Tron.Uprising.S01E06.Isolated.720p.WEB-DL.DD5.1.H264-NTb.mkv.htm
http://www.netload.in/datei3aZPCixj9M/xTxUx107.mkv.htm

EPISODE 8 - The Reward
Code:
http://billionuploads.com/ytx3d1bos518

http://filecloud.io/rgm0673s

http://netload.in/dateiQlcdmJNjzs/Tron.Uprising.S01E08.The.Reward.720p.WEB-DL.DD5.1.H264-NTb.mkv.htm

EPISODE 9 - Scars, Part 1
Code:
http://filecloud.io/9gtrubq1

http://netload.in/dateiBq06B9MUAp/Tron.Uprising.S01E09.Scars,Pt.1.720p.WEB-DL.DD5.1.H264-NTb.mkv.htm

EPISODE 10 - Scars, Part 2
Code:
http://billionuploads.com/sq9qrqgchslr

http://filecloud.io/0gla56nd

http://netload.in/dateioWYQ09bcj1/Tron.Uprising.S01E10.Scars.Pt.2.720p.WEB-DL.DD5.1.H264-NTb.mkv.htm

EPISODE 11 - Grounded
Code:
http://billionuploads.com/elvtta4anwfl

http://netload.in/dateiWmcaCjhDW4/Tron.Uprising.S01E11.Grounded.720p.WEB-DL.DD5.1.H264-NTb.mkv.htm

EPISODE 12 - We Both Know How This Ends
Code:
http://billionuploads.com/z90tg8svpeq4

http://netload.in/dateiJT1ylJMnrO/Tron.Uprising.S01E12.We.Both.Know.How.This.Ends.720p.WEB-DL.DD5.1.H264-iT00NZ.mkv.htm

[size=200]1080p[/size]

1080p SCREENSHOTS:





Code:
General

Format : Matroska
Format version : Version 2
File size : 1.26 GiB
Duration : 32mn 14s
Overall bit rate : 5 612 Kbps
Encoded date : UTC 2012-10-21 13:59:43
Writing application : mkvmerge v5.8.0 ('No Sleep / Pillow') built on Sep 2 2012 15:37:04
Writing library : libebml v1.2.3 + libmatroska v1.3.0

Video
ID : 1
Format : AVC
Format/Info : Advanced Video Codec
Format profile : High@L4.0
Format settings, CABAC : Yes
Format settings, ReFrames : 4 frames
Codec ID : V_MPEG4/ISO/AVC
Duration : 32mn 14s
Bit rate : 5 116 Kbps
Width : 1 916 pixels
Height : 1 076 pixels
Display aspect ratio : 16:9
Frame rate mode : Constant
Frame rate : 23.976 fps
Color space : YUV
Chroma subsampling : 4:2:0
Bit depth : 8 bits
Scan type : Progressive
Bits/(Pixel*Frame) : 0.104
Stream size : 1.15 GiB (91%)
Language : English
Default : Yes
Forced : No
Color primaries : BT.709
Transfer characteristics : BT.709
Matrix coefficients : BT.709

Audio
ID : 2
Format : AC-3
Format/Info : Audio Coding 3
Mode extension : CM (complete main)
Format settings, Endianness : Big
Codec ID : A_AC3
Duration : 32mn 14s
Bit rate mode : Constant
Bit rate : 384 Kbps
Channel(s) : 6 channels
Channel positions : Front: L C R, Side: L R, LFE
Sampling rate : 48.0 KHz
Bit depth : 16 bits
Compression mode : Lossy
Stream size : 88.6 MiB (7%)
Language : English
Default : Yes
Forced : No

EPISODE 1 - 7


Code:
http://filecloud.io/dmowp26a
http://filecloud.io/dz4cwnte
http://filecloud.io/h60n5ruo
http://filecloud.io/kur6tmp1
http://filecloud.io/pw8cqz76
http://filecloud.io/1dz37ctx
http://filecloud.io/1oned9j4
http://filecloud.io/e1trz4xb


Code:
http://www.netload.in/dateiwBGBeztTVf/Tron.Uprising.S01E01.Becks.Beginning.1080p.WEB-DL.DD5.1.H264-iT00NZ.mkv.htm
http://www.netload.in/dateiaZFHZEMO65/Tron.Uprising.S01E02.The.Renegade.Part.I.1080p.WEB-DL.DD5.1.H264-iT00NZ.mkv.htm
http://www.netload.in/dateiVmw5v0Z5S2/Tron.Uprising.S01E03.The.Renegade.Part.II.1080p.WEB-DL.DD5.1.H264-iT00NZ.mkv.htm
http://www.netload.in/dateiVMIx1j1yjK/Tron.Uprising.S01E04.Blackout.1080p.WEB-DL.DD5.1.H264-iT00NZ.mkv.htm
http://www.netload.in/datei6OSutyNdrp/Tron.Uprising.S01E05.Identity.1080p.WEB-DL.DD5.1.H264-iT00NZ.mkv.htm
http://www.netload.in/datei6sZR3JghuF/Tron.Uprising.S01E06.Isolated.1080p.WEB-DL.DD5.1.H264-iT00NZ.mkv.htm
http://www.netload.in/datei5ZRtkc9rcU/Tron.Uprising.S01E07.Price.of.Power.1080p.WEB-DL.DD5.1.H264-iT00NZ.mkv.htm

EPISODE 8 - The Reward
Code:
http://filecloud.io/asxvegbf

http://www.netload.in/dateizYmaBhAjFW/Tron.Uprising.S01E08.The.Reward.1080p.WEB-DL.DD5.1.H264-iT00NZ.mkv.htm

EPISODE 9 - Scars, Part 1
Code:
http://billionuploads.com/0wc9omxgeelw

http://filecloud.io/cg0tf86m

http://netload.in/dateisfnsXkrpqS/Tron.Uprising.S01E09.Scars,.Pt.1.1080p.WEB-DL.DD5.1.H264-iT00NZ.mkv.htm

EPISODE 10 - Scars, Part 2
Code:
http://billionuploads.com/7y7ajqyivtmb

http://filecloud.io/bad379nr

http://netload.in/dateioqHJEkCN93/Tron.Uprising.S01E10.Scars,.Pt.2.1080p.WEB-DL.DD5.1.H264-iT00NZ.mkv.htm

EPISODE 11 - Grounded
Code:
http://billionuploads.com/g3ieyax8a73b

http://netload.in/datei7UfWBlv5KB/Tron.Uprising.S01E11.Grounded.1080p.WEB-DL.DD5.1.H264-iT00NZ..mkv.htm

EPISODE 12 - We Both Know How This Ends
Code:
http://billionuploads.com/kdpe2t2lyuuv

http://netload.in/dateiN38o9azzGV/Tron.Uprising.S01E12.We.Both.Know.How.This.Ends.1080p.WEB-DL.DD5.1.H264-iT00NZ.mkv.htm

_________________


avatar
Harry-Potter
Admin

Posts : 305
Join date : 2012-08-01
Age : 21
Location : Toon-Anime

View user profile http://toon-anime.forumotion.eu

Back to top Go down

Re: [MULTI] Tron Uprising S01 720p/1080p WEB-DL-NTb

Post  Harry-Potter on Sun Dec 16, 2012 9:56 pm

Thread Updated!

_________________


avatar
Harry-Potter
Admin

Posts : 305
Join date : 2012-08-01
Age : 21
Location : Toon-Anime

View user profile http://toon-anime.forumotion.eu

Back to top Go down

View previous topic View next topic Back to top

- Similar topics

 
Permissions in this forum:
You cannot reply to topics in this forum