Toon-Anime Organization
Please Log in or Register to access full features of this Message Board.

[TF] Kamisama Kiss [Dual Audio] [m720p]

View previous topic View next topic Go down

[TF] Kamisama Kiss [Dual Audio] [m720p]

Post  Harry-Potter on Sun May 25, 2014 12:18 pm



Nanami Momozono is alone and homeless after her dad skips town to evade his gambling debts and the debt collectors kick her out of her apartment. So when a man she's just saved from a dog offers her his home, she jumps at the opportunity. But it turns out that his place is a shrine, and Nanami has unwittingly taken over his job as a local deity!

Nanami has all kinda of new responsibilities she doesn't understand, dangers she's unaware of, and a cranky ex-familiar who's... actually pretty hot. What's a new-fledged godling to do?


Code:
General
Unique ID                                : 235554904601370391563862460198251292939 (0xB13639745E8F8EC74F55B24096FA690B)
Complete name                            : C:UsersStevenDownloadsKamisama KissKamisama Kiss  Ep.01 (720).mkv
Format                                  : Matroska
Format version                          : Version 2
File size                                : 113 MiB
Duration                                : 23mn 56s
Overall bit rate mode                    : Variable
Overall bit rate                        : 661 Kbps
Writing application                      : HandBrake 0.9.9
Writing library                          : libmkv 0.6.5
TITLE                                    : Nanami Becomes A God
Attachment                              : Yes / Yes / Yes / Yes / Yes / Yes / Yes / Yes / Yes / Yes / Yes / Yes / Yes / Yes / Yes / Yes / Yes / Yes / Yes / Yes / Yes / Yes / Yes / Yes / Yes

Video
ID                                      : 1
Format                                  : AVC
Format/Info                              : Advanced Video Codec
Format profile                          : High@L5.0
Format settings, CABAC                  : Yes
Format settings, ReFrames                : 16 frames
Codec ID                                : V_MPEG4/ISO/AVC
Duration                                : 23mn 56s
Bit rate                                : 456 Kbps
Width                                    : 1 280 pixels
Height                                  : 720 pixels
Display aspect ratio                    : 16:9
Frame rate mode                          : Constant
Frame rate                              : 23.976 fps
Color space                              : YUV
Chroma subsampling                      : 4:2:0
Bit depth                                : 8 bits
Scan type                                : Progressive
Bits/(Pixel*Frame)                      : 0.021
Stream size                              : 78.1 MiB (69%)
Writing library                          : x264 core 130 r2273 b3065e6
Encoding settings                        : cabac=1 / ref=16 / deblock=1:1:1 / analyse=0x3:0x133 / me=umh / subme=10 / psy=1 / psy_rd=0.40:0.00 / mixed_ref=1 / me_range=24 / chroma_me=1 / trellis=2 / 8x8dct=1 / cqm=0 / deadzone=21,11 / fast_pskip=1 / chroma_qp_offset=-2 / threads=12 / lookahead_threads=3 / sliced_threads=0 / nr=0 / decimate=1 / interlaced=0 / bluray_compat=0 / constrained_intra=0 / bframes=10 / b_pyramid=2 / b_adapt=2 / b_bias=0 / direct=3 / weightb=1 / open_gop=0 / weightp=2 / keyint=240 / keyint_min=24 / scenecut=40 / intra_refresh=0 / rc_lookahead=60 / rc=crf / mbtree=1 / crf=26.0 / qcomp=0.60 / qpmin=0 / qpmax=69 / qpstep=4 / ip_ratio=1.40 / aq=1:0.60
Language                                : English
Default                                  : Yes
Forced                                  : No
Color primaries                          : BT.709
Transfer characteristics                : BT.709
Matrix coefficients                      : BT.709

Audio #1
ID                                      : 2
Format                                  : Vorbis
Format settings, Floor                  : 1
Codec ID                                : A_VORBIS
Duration                                : 23mn 56s
Bit rate mode                            : Variable
Bit rate                                : 64.0 Kbps
Channel(s)                              : 1 channel
Sampling rate                            : 48.0 KHz
Compression mode                        : Lossy
Stream size                              : 11.0 MiB (10%)
Writing library                          : aoTuV 20110424 (UTC 2011-04-24)
Language                                : English
Default                                  : Yes
Forced                                  : No
Writing application                      : HandBrake

Audio #2
ID                                      : 3
Format                                  : Vorbis
Format settings, Floor                  : 1
Codec ID                                : A_VORBIS
Duration                                : 23mn 56s
Bit rate mode                            : Variable
Bit rate                                : 64.0 Kbps
Channel(s)                              : 1 channel
Sampling rate                            : 48.0 KHz
Compression mode                        : Lossy
Stream size                              : 11.0 MiB (10%)
Writing library                          : aoTuV 20110424 (UTC 2011-04-24)
Language                                : Japanese
Default                                  : No
Forced                                  : No
Writing application                      : HandBrake

Audio #3
ID                                      : 4
Format                                  : Vorbis
Format settings, Floor                  : 1
Codec ID                                : A_VORBIS
Duration                                : 23mn 56s
Bit rate mode                            : Variable
Bit rate                                : 64.0 Kbps
Channel(s)                              : 1 channel
Sampling rate                            : 48.0 KHz
Compression mode                        : Lossy
Stream size                              : 11.0 MiB (10%)
Writing library                          : aoTuV 20110424 (UTC 2011-04-24)
Language                                : English
Default                                  : No
Forced                                  : No
Writing application                      : HandBrake

Text #1
ID                                      : 5
Format                                  : SSA
Codec ID                                : S_TEXT/SSA
Codec ID/Info                            : Sub Station Alpha
Compression mode                        : Lossless
Language                                : English
Default                                  : Yes
Forced                                  : No

Text #2
ID                                      : 6
Format                                  : SSA
Codec ID                                : S_TEXT/SSA
Codec ID/Info                            : Sub Station Alpha
Compression mode                        : Lossless
Language                                : Japanese
Default                                  : No
Forced                                  : No

Menu
00:00:00.000                            : Chapter 1
00:01:31.091                            : Chapter 2
00:12:05.016                            : Chapter 3
00:22:08.494                            : Chapter 4
00:23:41.045                            : Chapter 5





Code:
https://www.tusfiles.net/ftu2xdoasxz4/Kamisama_Kiss_Ep.01_(720).mkv
https://www.tusfiles.net/e4wea8hxmfee/Kamisama_Kiss_Ep.02_(720).mkv
https://www.tusfiles.net/ivpty8f9xtwa/Kamisama_Kiss_Ep.03_(720).mkv
https://www.tusfiles.net/ca3xrydcq4kv/Kamisama_Kiss_Ep.04_(720).mkv
https://www.tusfiles.net/o2njxe3ffvi5/Kamisama_Kiss_Ep.05_(720).mkv
https://www.tusfiles.net/a0ttwx9uc5aq/Kamisama_Kiss_Ep.06_(720).mkv
https://www.tusfiles.net/5wgpn7rxhklp/Kamisama_Kiss_Ep.07_(720).mkv
https://www.tusfiles.net/54r0vhbelila/Kamisama_Kiss_Ep.08_(720).mkv
https://www.tusfiles.net/qfymtl5o50m8/Kamisama_Kiss_Ep.09_(720).mkv
https://www.tusfiles.net/xkj2wqqzzeer/Kamisama_Kiss_Ep.10_(720).mkv
https://www.tusfiles.net/8u6gwjkvg3nb/Kamisama_Kiss_Ep.11_(720).mkv
https://www.tusfiles.net/w7587y8gm12j/Kamisama_Kiss_Ep.11_(720).mkv
https://www.tusfiles.net/0ndy8l8iahzz/Kamisama_Kiss_Ep.12_(720).mkv
https://www.tusfiles.net/7bxwu0ohlet2/Kamisama_Kiss_Ep.13_(720).mkv

_________________


avatar
Harry-Potter
Admin

Posts : 305
Join date : 2012-08-01
Age : 22
Location : Toon-Anime

View user profile http://toon-anime.forumotion.eu

Back to top Go down

View previous topic View next topic Back to top


 
Permissions in this forum:
You cannot reply to topics in this forum